<?xml version="1.0" standalone="no"?>
<!DOCTYPE svg PUBLIC "-//W3C//DTD SVG 1.1//EN" "http://www.w3.org/Graphics/SVG/1.1/DTD/svg11.dtd" >
<svg xmlns="http://www.w3.org/2000/svg">
<metadata>Generated by IcoMoon</metadata>
<defs>
<font id="Seo-Set" horiz-adv-x="1024">
<font-face units-per-em="1024" ascent="960" descent="-64" />
<missing-glyph horiz-adv-x="1024" />
<glyph unicode="&#x20;" horiz-adv-x="512" d="" />
<glyph unicode="&#xe900;" glyph-name="angle-right-solid" horiz-adv-x="512" d="M448.6 414l-272-272c-18.8-18.8-49.2-18.8-67.8 0l-45.2 45.2c-18.8 18.8-18.8 49.2 0 67.8l192.8 192.8-192.8 192.8c-18.8 18.8-18.8 49.2 0 67.8l45 45.6c18.8 18.8 49.2 18.8 67.8 0l272-272c19-18.8 19-49.2 0.2-68z" />
<glyph unicode="&#xe901;" glyph-name="building-solid" horiz-adv-x="896" d="M872 0h-40v912c0 26.51-21.49 48-48 48h-672c-26.51 0-48-21.49-48-48v-912h-40c-13.254 0-24-10.746-24-24v-40h896v40c0 13.254-10.746 24-24 24zM256 808c0 13.254 10.746 24 24 24h80c13.254 0 24-10.746 24-24v-80c0-13.254-10.746-24-24-24h-80c-13.254 0-24 10.746-24 24v80zM256 616c0 13.254 10.746 24 24 24h80c13.254 0 24-10.746 24-24v-80c0-13.254-10.746-24-24-24h-80c-13.254 0-24 10.746-24 24v80zM360 320h-80c-13.254 0-24 10.746-24 24v80c0 13.254 10.746 24 24 24h80c13.254 0 24-10.746 24-24v-80c0-13.254-10.746-24-24-24zM512 0h-128v168c0 13.254 10.746 24 24 24h80c13.254 0 24-10.746 24-24v-168zM640 344c0-13.254-10.746-24-24-24h-80c-13.254 0-24 10.746-24 24v80c0 13.254 10.746 24 24 24h80c13.254 0 24-10.746 24-24v-80zM640 536c0-13.254-10.746-24-24-24h-80c-13.254 0-24 10.746-24 24v80c0 13.254 10.746 24 24 24h80c13.254 0 24-10.746 24-24v-80zM640 728c0-13.254-10.746-24-24-24h-80c-13.254 0-24 10.746-24 24v80c0 13.254 10.746 24 24 24h80c13.254 0 24-10.746 24-24v-80z" />
<glyph unicode="&#xe902;" glyph-name="chart-bar-solid" d="M665.6 320h76.8c12.8 0 25.6 12.8 25.6 25.6v268.8c0 12.8-12.8 25.6-25.6 25.6h-76.8c-12.8 0-25.6-12.8-25.6-25.6v-268.8c0-12.8 12.8-25.6 25.6-25.6zM857.6 320h76.8c12.8 0 25.6 12.8 25.6 25.6v460.8c0 12.8-12.8 25.6-25.6 25.6h-76.8c-12.8 0-25.6-12.8-25.6-25.6v-460.8c0-12.8 12.8-25.6 25.6-25.6zM281.6 320h76.8c12.8 0 25.6 12.8 25.6 25.6v140.8c0 12.8-12.8 25.6-25.6 25.6h-76.8c-12.8 0-25.6-12.8-25.6-25.6v-140.8c0-12.8 12.8-25.6 25.6-25.6zM473.6 320h76.8c12.8 0 25.6 12.8 25.6 25.6v396.8c0 12.8-12.8 25.6-25.6 25.6h-76.8c-12.8 0-25.6-12.8-25.6-25.6v-396.8c0-12.8 12.8-25.6 25.6-25.6zM992 192h-864v608c0 17.68-14.32 32-32 32h-64c-17.68 0-32-14.32-32-32v-672c0-35.34 28.66-64 64-64h928c17.68 0 32 14.32 32 32v64c0 17.68-14.32 32-32 32z" />
<glyph unicode="&#xe903;" glyph-name="chart-line-solid" d="M992 192h-864v608c0 17.68-14.32 32-32 32h-64c-17.68 0-32-14.32-32-32v-672c0-35.34 28.66-64 64-64h928c17.68 0 32 14.32 32 32v64c0 17.68-14.32 32-32 32zM928 768h-236.12c-42.76 0-64.18-51.7-33.94-81.94l64.8-64.8-146.74-146.76-146.74 146.74c-25 25-65.52 25-90.5 0l-137.38-137.38c-12.5-12.5-12.5-32.76 0-45.26l45.24-45.24c12.5-12.5 32.76-12.5 45.26 0l92.12 92.14 146.74-146.74c25-25 65.52-25 90.5 0l192 192 64.8-64.8c30.24-30.24 81.94-8.82 81.94 33.94v236.1c0.020 17.68-14.3 32-31.98 32z" />
<glyph unicode="&#xe904;" glyph-name="child-solid" horiz-adv-x="768" d="M240 816c0 79.53 64.47 144 144 144s144-64.47 144-144c0-79.528-64.47-144-144-144s-144 64.472-144 144zM749.254 813.254c-24.992 24.994-65.516 24.994-90.508 0l-173.256-173.254h-202.982l-173.254 173.254c-24.992 24.994-65.516 24.994-90.508 0-24.994-24.994-24.994-65.516 0-90.51l189.254-189.252v-533.492c0-35.346 28.654-64 64-64h32c35.346 0 64 28.654 64 64v224h32v-224c0-35.346 28.654-64 64-64h32c35.346 0 64 28.654 64 64v533.492l189.254 189.254c24.994 24.994 24.994 65.514 0 90.508z" />
<glyph unicode="&#xe905;" glyph-name="clock-solid" d="M512 944c-274 0-496-222-496-496s222-496 496-496 496 222 496 496-222 496-496 496zM696.98 318v0l-40-50c-5.914-7.349-14.907-12.012-24.99-12.012-7.592 0-14.566 2.644-20.052 7.060l0.062-0.048-134 99.44c-18.355 14.784-30 37.257-30 62.45 0 0.004 0 0.007 0 0.011v-0.001 311.1c0 17.673 14.327 32 32 32v0h64c17.673 0 32-14.327 32-32v0-288l116-85c7.348-5.914 12.010-14.906 12.010-24.988 0-7.601-2.65-14.584-7.078-20.073l0.048 0.061z" />
<glyph unicode="&#xe906;" glyph-name="cog-solid" d="M974.8 328.6l-85.2 49.2c8.6 46.4 8.6 94 0 140.4l85.2 49.2c9.8 5.6 14.2 17.2 11 28-22.2 71.2-60 135.6-109.4 189.2-7.6 8.2-20 10.2-29.6 4.6l-85.2-49.2c-35.8 30.8-77 54.6-121.6 70.2v98.2c0 11.2-7.8 21-18.8 23.4-73.4 16.4-148.6 15.6-218.4 0-11-2.4-18.8-12.2-18.8-23.4v-98.4c-44.4-15.8-85.6-39.6-121.6-70.2l-85 49.2c-9.8 5.6-22 3.8-29.6-4.6-49.4-53.4-87.2-117.8-109.4-189.2-3.4-10.8 1.2-22.4 11-28l85.2-49.2c-8.6-46.4-8.6-94 0-140.4l-85.2-49.2c-9.8-5.6-14.2-17.2-11-28 22.2-71.2 60-135.6 109.4-189.2 7.6-8.2 20-10.2 29.6-4.6l85.2 49.2c35.8-30.8 77-54.6 121.6-70.2v-98.4c0-11.2 7.8-21 18.8-23.4 73.4-16.4 148.6-15.6 218.4 0 11 2.4 18.8 12.2 18.8 23.4v98.4c44.4 15.8 85.6 39.6 121.6 70.2l85.2-49.2c9.8-5.6 22-3.8 29.6 4.6 49.4 53.4 87.2 117.8 109.4 189.2 3 11-1.4 22.6-11.2 28.2zM512 288c-88.2 0-160 71.8-160 160s71.8 160 160 160 160-71.8 160-160-71.8-160-160-160z" />
<glyph unicode="&#xe907;" glyph-name="envelope-solid" d="M1004.6 578.4c7.8 6.2 19.4 0.4 19.4-9.4v-409c0-53-43-96-96-96h-832c-53 0-96 43-96 96v408.8c0 10 11.4 15.6 19.4 9.4 44.8-34.8 104.2-79 308.2-227.2 42.2-30.8 113.4-95.6 184.4-95.2 71.4-0.6 144 65.6 184.6 95.2 204 148.2 263.2 192.6 308 227.4zM512 320c46.4-0.8 113.2 58.4 146.8 82.8 265.4 192.6 285.6 209.4 346.8 257.4 11.6 9 18.4 23 18.4 37.8v38c0 53-43 96-96 96h-832c-53 0-96-43-96-96v-38c0-14.8 6.8-28.6 18.4-37.8 61.2-47.8 81.4-64.8 346.8-257.4 33.6-24.4 100.4-83.6 146.8-82.8z" />
<glyph unicode="&#xe908;" glyph-name="google-brands" horiz-adv-x="976" d="M976 436.4c0-283-193.8-484.4-480-484.4-274.4 0-496 221.6-496 496s221.6 496 496 496c133.6 0 246-49 332.6-129.8l-135-129.8c-176.6 170.4-505 42.4-505-236.4 0-173 138.2-313.2 307.4-313.2 196.4 0 270 140.8 281.6 213.8h-281.6v170.6h472.2c4.6-25.4 7.8-49.8 7.8-82.8z" />
<glyph unicode="&#xe909;" glyph-name="handshake-solid" horiz-adv-x="1280" d="M869.4 832h-171.8c-16 0-31.4-6-43.2-16.8l-196.6-180c-0.2-0.2-0.4-0.6-0.6-0.8-33.2-31.2-32.6-81-4.2-112 25.4-27.8 78.8-35.2 112.2-5.4 0.2 0.2 0.6 0.2 0.8 0.4l159.8 146.4c13 11.8 33.4 11 45.2-2 12-13 11-33.2-2-45.2l-52.2-47.8 291.2-236.4c5.8-4.8 11-10 15.8-15.4v387l-109.2 109.2c-11.8 12-28.2 18.8-45.2 18.8zM1088 703.6v-447.8c0-35.4 28.6-64 64-64h128v511.8h-192zM1184 255.8c-17.6 0-32 14.4-32 32s14.4 32 32 32 32-14.4 32-32-14.4-32-32-32zM0 192h128c35.4 0 64 28.6 64 64v447.6h-192v-511.6zM96 319.8c17.6 0 32-14.4 32-32s-14.4-32-32-32-32 14.4-32 32c0 17.8 14.4 32 32 32zM967.8 282.6l-298.6 242.4-60-55c-59.4-54.2-150.4-49-203.4 8.8-53.8 58.8-49.6 149.8 8.8 203.4l163.6 149.8h-167.6c-17 0-33.2-6.8-45.2-18.8l-109.4-109.2v-447.8h36.6l181-163.8c54.8-44.6 135.4-36.2 180 18.6l0.4 0.4 35.8-31c31.8-26 78.8-21 104.6 10.8l62.8 77.2 10.8-8.8c27.4-22.2 67.8-18.2 90 9.4l19 23.4c22.4 27.6 18.2 67.8-9.2 90.2z" />
<glyph unicode="&#xe90a;" glyph-name="heartbeat-solid" d="M640.4 472.4l-99.4-198.8c-12-24.2-46.8-23.4-57.8 1.2l-113.8 252.6-60-143.4h-188.2l365-373c14.2-14.6 37.2-14.6 51.4 0l365.2 373h-218.2l-44.2 88.4zM947.4 812.2l-4.8 5c-103 105.2-271.6 105.2-374.8 0l-55.8-57.2-55.8 57c-103 105.4-271.8 105.4-374.8 0l-4.8-4.8c-97.4-99.6-101.6-258.2-14.6-364.2h204.8l71.8 172.4c10.8 25.8 47.2 26.4 58.8 0.8l116.4-258.6 98 195.8c11.8 23.6 45.4 23.6 57.2 0l55.2-110.4h237.8c87 106 82.8 264.6-14.6 364.2z" />
<glyph unicode="&#xe90b;" glyph-name="map-marker-alt-solid" horiz-adv-x="768" d="M344.536-43.34c-290.596 421.278-344.536 464.514-344.536 619.34 0 212.078 171.922 384 384 384s384-171.922 384-384c0-154.826-53.94-198.062-344.536-619.34-19.070-27.548-59.86-27.546-78.928 0zM384 416c88.366 0 160 71.634 160 160s-71.634 160-160 160-160-71.634-160-160 71.634-160 160-160z" />
<glyph unicode="&#xe90c;" glyph-name="paw-solid" d="M512 512c-158.82 0-384-245.52-384-400.5 0-69.8 53.62-111.5 143.48-111.5 97.68 0 162.18 50.16 240.52 50.16 79.020 0 143.7-50.16 240.52-50.16 89.86 0 143.48 41.7 143.48 111.5 0 154.98-225.18 400.5-384 400.5zM217.44 537.22c-20.8 69.3-84.88 114.18-143.12 100.26s-88.58-81.38-67.78-150.68c20.8-69.3 84.88-114.18 143.12-100.26s88.58 81.38 67.78 150.68zM386.88 578.78c61.88 16.28 92.84 99.88 69.16 186.72s-93.040 144.020-154.92 127.74-92.84-99.88-69.16-186.72c23.68-86.84 93.060-144.040 154.92-127.74zM949.66 637.46c-58.24 13.92-122.3-30.96-143.12-100.26-20.8-69.3 9.54-136.76 67.78-150.68s122.3 30.96 143.12 100.26c20.8 69.3-9.54 136.76-67.78 150.68zM637.12 578.78c61.88-16.28 131.24 40.9 154.92 127.74s-7.28 170.42-69.16 186.72-131.24-40.9-154.92-127.74c-23.68-86.84 7.28-170.44 69.16-186.72z" />
<glyph unicode="&#xe90d;" glyph-name="pencil-alt-solid" d="M995.8 675.8l-92.2-92.2c-9.4-9.4-24.6-9.4-34 0l-222 222c-9.4 9.4-9.4 24.6 0 34l92.2 92.2c37.4 37.4 98.2 37.4 135.8 0l120.2-120.2c37.6-37.4 37.6-98.2 0-135.8zM568.4 760.4l-525.2-525.2-42.4-243c-5.8-32.8 22.8-61.2 55.6-55.6l243 42.6 525.2 525.2c9.4 9.4 9.4 24.6 0 34l-222 222c-9.6 9.4-24.8 9.4-34.2 0zM248.2 280.2c-11 11-11 28.6 0 39.6l308 308c11 11 28.6 11 39.6 0s11-28.6 0-39.6l-308-308c-11-11-28.6-11-39.6 0zM176 112h96v-72.6l-129-22.6-62.2 62.2 22.6 129h72.6v-96z" />
<glyph unicode="&#xe90e;" glyph-name="phone-solid" d="M986.8 910.8l-208 48c-22.6 5.2-45.8-6.6-55-27.8l-96-224c-8.4-19.6-2.8-42.6 13.8-56l121.2-99.2c-72-153.4-197.8-281-354.4-354.4l-99.2 121.2c-13.6 16.6-36.4 22.2-56 13.8l-224-96c-21.4-9.4-33.2-32.6-28-55.2l48-208c5-21.6 24.2-37.2 46.8-37.2 512.2 0 928 415 928 928 0 22.4-15.4 41.8-37.2 46.8z" />
<glyph unicode="&#xe90f;" glyph-name="phone-volume-solid" horiz-adv-x="768" d="M194.666-53.932c-259.748 259.748-259.362 680.504 0 939.866 11.396 11.396 29.054 13.264 42.526 4.844l129.634-81.026c9.766-6.175 16.157-16.916 16.157-29.15 0-4.599-0.903-8.987-2.542-12.996l0.083 0.229-64.816-162.042c-5.209-12.771-17.531-21.609-31.917-21.609-1.205 0-2.395 0.062-3.568 0.183l0.147-0.012-111.62 11.16c-42.102-116.522-41.224-244.942 0-359.030l111.622 11.162c1.026 0.109 2.216 0.171 3.421 0.171 14.386 0 26.708-8.837 31.834-21.379l0.083-0.23 64.816-162.044c1.555-3.78 2.458-8.167 2.458-12.766 0-12.234-6.39-22.975-16.015-29.067l-0.141-0.083-129.634-81.026c-5.171-3.278-11.468-5.224-18.219-5.224-9.493 0-18.088 3.848-24.309 10.068v0zM494.252 769.054c23.664-40.094 23.664-90.016 0-130.11-7.9-13.386-26.216-15.918-37.436-5.162l-11.95 11.452c-7.822 7.496-9.586 19.244-4.522 28.82 4.674 8.678 7.421 18.991 7.421 29.945s-2.747 21.267-7.589 30.287l0.168-0.342c-5.066 9.576-3.3 21.324 4.522 28.82l11.95 11.452c11.22 10.756 29.536 8.224 37.436-5.162zM677.826 951.428c120.28-143.208 120.184-351.764 0-494.856-8.948-10.654-25.060-11.492-35.104-1.866l-11.596 11.114c-9.12 8.742-9.954 23.058-1.86 32.758 99.374 119.076 99.292 291.866 0 410.844-8.094 9.7-7.262 24.016 1.86 32.758l11.596 11.114c10.044 9.626 26.156 8.788 35.104-1.866zM585.882 861.546c72.1-92.644 72.216-222.298 0-315.092-8.78-11.282-25.394-12.502-35.712-2.608l-11.636 11.158c-8.8 8.438-9.996 22.19-2.57 31.862 53.072 69.128 53.068 165.144 0 234.268-7.426 9.672-6.23 23.422 2.57 31.862l11.636 11.158c10.318 9.894 26.932 8.674 35.712-2.608z" />
<glyph unicode="&#xe910;" glyph-name="road-solid" horiz-adv-x="1152" d="M1146.38 154.66l-279.58 640c-9.94 22.76-31.6 37.34-55.44 37.34h-195.18l4.9-46.32c1-9.44-6.42-17.68-15.92-17.68h-58.32c-9.5 0-16.92 8.24-15.92 17.68l4.9 46.32h-195.18c-23.86 0-45.52-14.58-55.46-37.34l-279.58-640c-18.5-42.38 11.020-90.66 55.48-90.66h393.68l20.62 195.36c1.72 16.28 15.44 28.64 31.82 28.64h137.6c16.38 0 30.1-12.36 31.82-28.64l20.62-195.36h393.68c44.46 0 73.98 48.28 55.46 90.66zM520.8 689.68c0.879 8.084 7.667 14.32 15.912 14.32 0.003 0 0.006 0 0.009 0h78.58c8.18 0 15.060-6.18 15.92-14.32l9.2-87.16c1.5-14.18-9.62-26.52-23.86-26.52h-81.080c-14.26 0-25.36 12.34-23.86 26.52l9.18 87.16zM631.28 352h-110.58c-19 0-33.82 16.46-31.82 35.36l10.14 96c1.72 16.28 15.44 28.64 31.82 28.64h90.3c16.38 0 30.1-12.36 31.82-28.64l10.14-96c2-18.9-12.82-35.36-31.82-35.36z" />
<glyph unicode="&#xe911;" glyph-name="search-solid" d="M1010 74.6l-199.4 199.4c-9 9-21.2 14-34 14h-32.6c55.2 70.6 88 159.4 88 256 0 229.8-186.2 416-416 416s-416-186.2-416-416 186.2-416 416-416c96.6 0 185.4 32.8 256 88v-32.6c0-12.8 5-25 14-34l199.4-199.4c18.8-18.8 49.2-18.8 67.8 0l56.6 56.6c18.8 18.8 18.8 49.2 0.2 68zM416 288c-141.4 0-256 114.4-256 256 0 141.4 114.4 256 256 256 141.4 0 256-114.4 256-256 0-141.4-114.4-256-256-256z" />
<glyph unicode="&#xe912;" glyph-name="sign-language-solid" horiz-adv-x="896" d="M182.868-7.974c-0.614 32.036 26.218 58.258 58.26 58.258h124.586v11.428h-251.728c-32.042 0-58.874 26.222-58.26 58.258 0.594 31.048 25.944 56.030 57.13 56.030h252.858v11.428h-307.442c-32.042 0-58.874 26.222-58.26 58.258 0.594 31.044 25.946 56.026 57.132 56.026h308.572v11.428h-250.302c-32.042 0-58.874 26.222-58.26 58.258 0.594 31.044 25.946 56.026 57.132 56.026h337.132l-62.17 45.212c-25.524 18.562-31.166 54.298-12.604 79.824 18.562 25.522 54.3 31.164 79.824 12.604l246.722-179.43c17.198-12.613 28.239-32.745 28.24-55.456v0-282.272c0-31.82-21.892-59.46-52.866-66.748l-160.942-37.868c-18.871-4.633-40.536-7.291-62.822-7.292h-214.8c-31.186 0.002-56.538 24.984-57.132 56.028zM329.366 443.428h72.846l-22.374 16.272c-37.158 27.022-40.626 81.774-6.34 113.072l-26.008 33.4c-19.686 25.282-56.86 30.342-81.76 10.176-24.13-19.542-28.266-54.894-9.106-79.5l72.742-93.42zM895.962 447.634l-10.006 304.904c-1.036 31.542-27.444 56.272-58.986 55.238-31.546-1.036-56.274-27.444-55.238-58.986l2.524-76.83-207.126 266.002c-19.16 24.606-54.446 29.26-79.306 10.656-25.654-19.198-29.858-56.48-10.172-81.762l153.778-197.49-9.018-7.022-189.58 243.468c-19.16 24.606-54.446 29.26-79.306 10.656-25.654-19.198-29.858-56.48-10.172-81.762l188.886-242.576-9.018-7.022-155.35 199.508c-19.16 24.606-54.446 29.26-79.306 10.656-25.654-19.198-29.858-56.48-10.172-81.762l104.106-133.698c24.994 16.514 58.11 16.57 83.38-1.808l246.72-179.428c21.808-15.86 34.83-41.43 34.83-68.396v-33.998l122.128 95.098c16.156 12.665 26.441 32.182 26.441 54.102 0 0.792-0.013 1.581-0.040 2.366l0.003-0.114z" />
<glyph unicode="&#xe913;" glyph-name="star-solid" horiz-adv-x="1152" d="M518.6 924.4l-130.6-264.8-292.2-42.6c-52.4-7.6-73.4-72.2-35.4-109.2l211.4-206-50-291c-9-52.6 46.4-92 92.8-67.4l261.4 137.4 261.4-137.4c46.4-24.4 101.8 14.8 92.8 67.4l-50 291 211.4 206c38 37 17 101.6-35.4 109.2l-292.2 42.6-130.6 264.8c-23.4 47.2-91.2 47.8-114.8 0z" />
<glyph unicode="&#xe914;" glyph-name="tint-solid" horiz-adv-x="704" d="M410.44 915.82c-15.88 57.56-98.88 60.24-116.88 0-93.54-315.52-293.56-401.26-293.56-623.64 0-196.88 157.44-356.18 352-356.18s352 159.3 352 356.18c0 223.5-199.58 306.68-293.56 623.64zM352 64c-123.5 0-224 100.5-224 224 0 17.68 14.32 32 32 32s32-14.32 32-32c0-88.22 71.78-160 160-160 17.68 0 32-14.32 32-32s-14.32-32-32-32z" />
<glyph unicode="&#xe915;" glyph-name="user-friends-solid" horiz-adv-x="1280" d="M384 448c123.8 0 224 100.2 224 224s-100.2 224-224 224-224-100.2-224-224 100.2-224 224-224zM537.6 384h-16.6c-41.6-20-87.8-32-137-32s-95.2 12-137 32h-16.6c-127.2 0-230.4-103.2-230.4-230.4v-57.6c0-53 43-96 96-96h576c53 0 96 43 96 96v57.6c0 127.2-103.2 230.4-230.4 230.4zM960 448c106 0 192 86 192 192s-86 192-192 192-192-86-192-192 86-192 192-192zM1056 384h-7.6c-27.8-9.6-57.2-16-88.4-16s-60.6 6.4-88.4 16h-7.6c-40.8 0-78.4-11.8-111.4-30.8 48.8-52.6 79.4-122.4 79.4-199.6v-76.8c0-4.4-1-8.6-1.2-12.8h353.2c53 0 96 43 96 96 0 123.8-100.2 224-224 224z" />
<glyph unicode="&#xe916;" glyph-name="users-solid" horiz-adv-x="1280" d="M192 512c70.6 0 128 57.4 128 128s-57.4 128-128 128-128-57.4-128-128 57.4-128 128-128zM1088 512c70.6 0 128 57.4 128 128s-57.4 128-128 128-128-57.4-128-128 57.4-128 128-128zM1152 448h-128c-35.2 0-67-14.2-90.2-37.2 80.6-44.2 137.8-124 150.2-218.8h132c35.4 0 64 28.6 64 64v64c0 70.6-57.4 128-128 128zM640 448c123.8 0 224 100.2 224 224s-100.2 224-224 224-224-100.2-224-224 100.2-224 224-224zM793.6 384h-16.6c-41.6-20-87.8-32-137-32s-95.2 12-137 32h-16.6c-127.2 0-230.4-103.2-230.4-230.4v-57.6c0-53 43-96 96-96h576c53 0 96 43 96 96v57.6c0 127.2-103.2 230.4-230.4 230.4zM346.2 410.8c-23.2 23-55 37.2-90.2 37.2h-128c-70.6 0-128-57.4-128-128v-64c0-35.4 28.6-64 64-64h131.8c12.6 94.8 69.8 174.6 150.4 218.8z" />
<glyph unicode="&#xe917;" glyph-name="utensils-solid" horiz-adv-x="832" d="M415.8 929.6c1.6-9.4 32.2-189 32.2-257.6 0-104.6-55.6-179.2-137.8-209.2l25.8-476.2c1.4-27.4-20.4-50.6-48-50.6h-128c-27.4 0-49.4 23-48 50.6l25.8 476.2c-82.4 30-137.8 104.8-137.8 209.2 0 68.8 30.6 248.2 32.2 257.6 6.4 40.6 90.6 41.2 95.8-2.2v-282.4c2.6-6.8 30.2-6.4 32 0 2.8 50.6 15.8 278.4 16 283.6 6.6 41.6 89.4 41.6 95.8 0 0.4-5.4 13.2-233 16-283.6 1.8-6.4 29.6-6.8 32 0v282.4c5.2 43.2 89.6 42.8 96 2.2zM654.2 358.2l-30-370.2c-2.4-28 19.8-52 47.8-52h112c26.6 0 48 21.4 48 48v928c0 26.4-21.4 48-48 48-165 0-442.8-357-129.8-601.8z" />
<glyph unicode="&#xe918;" glyph-name="video-solid" horiz-adv-x="1152" d="M672.4 832h-576.8c-52.8 0-95.6-42.8-95.6-95.6v-576.8c0-52.8 42.8-95.6 95.6-95.6h576.8c52.8 0 95.6 42.8 95.6 95.6v576.8c0 52.8-42.8 95.6-95.6 95.6zM1051.2 756.6l-219.2-151.2v-314.8l219.2-151c42.4-29.2 100.8 0.6 100.8 51.6v513.8c0 50.8-58.2 80.8-100.8 51.6z" />
<glyph unicode="&#xe919;" glyph-name="walking-solid" horiz-adv-x="640" d="M416 768c53 0 96 43 96 96s-43 96-96 96-96-43-96-96 43-96 96-96zM605 469.8l-46.6 23.6-19.4 58.8c-29.4 89.2-111.4 151.6-204.4 151.8-72 0.2-111.8-20.2-186.6-50.4-43.2-17.4-78.6-50.4-99.4-92.4l-13.4-27.2c-15.6-31.6-3-70 28.4-85.8 31.2-15.8 69.2-3 85 28.6l13.4 27.2c7 14 18.6 25 33 30.8l53.6 21.6-30.4-121.4c-10.4-41.6 0.8-85.8 29.8-117.6l119.8-130.8c14.4-15.8 24.6-34.8 29.8-55.4l36.6-146.6c8.6-34.2 43.4-55.2 77.6-46.6s55.2 43.4 46.6 77.6l-44.4 178c-5.2 20.6-15.4 39.8-29.8 55.4l-91 99.4 34.4 137.4 11-33c10.6-32.2 33.4-58.8 63.4-74l46.6-23.6c31.2-15.8 69.2-3 85 28.6 15.4 31.4 2.8 70.2-28.6 86zM147.2 188.4c-6.4-16.2-16-30.8-28.4-43l-100-100.2c-25-25-25-65.6 0-90.6s65.4-25 90.4 0l118.8 118.8c12.2 12.2 21.8 26.8 28.4 43l27 67.6c-110.6 120.6-77.4 83.6-94.8 107.4l-41.4-103z" />
<glyph unicode="&#xe91a;" glyph-name="bars-solid" horiz-adv-x="896" d="M32 696h832c17.674 0 32 14.326 32 32v80c0 17.674-14.326 32-32 32h-832c-17.674 0-32-14.326-32-32v-80c0-17.674 14.326-32 32-32zM32 376h832c17.674 0 32 14.326 32 32v80c0 17.674-14.326 32-32 32h-832c-17.674 0-32-14.326-32-32v-80c0-17.674 14.326-32 32-32zM32 56h832c17.674 0 32 14.326 32 32v80c0 17.674-14.326 32-32 32h-832c-17.674 0-32-14.326-32-32v-80c0-17.674 14.326-32 32-32z" />
<glyph unicode="&#xe91b;" glyph-name="times-solid" horiz-adv-x="704" d="M485.44 448l200.14 200.14c24.56 24.56 24.56 64.38 0 88.96l-44.48 44.48c-24.56 24.56-64.38 24.56-88.96 0l-200.14-200.14-200.14 200.14c-24.56 24.56-64.38 24.56-88.96 0l-44.48-44.48c-24.56-24.56-24.56-64.38 0-88.96l200.14-200.14-200.14-200.14c-24.56-24.56-24.56-64.38 0-88.96l44.48-44.48c24.56-24.56 64.4-24.56 88.96 0l200.14 200.14 200.14-200.14c24.56-24.56 64.4-24.56 88.96 0l44.48 44.48c24.56 24.56 24.56 64.38 0 88.96l-200.14 200.14z" />
</font>
</defs>
</svg>
